Quick Browse
Movies
TV shows
Music
Games
Applications
Anime
Other

Latest Articles

Friends
RARBG
Torrents.me
Torrent Download
Movie4u
1337x
Torrent Downloads

The League S07E10 The Block 1080p WEB-DL DD5 1 H264-NTb[rartv]


    Seeders : 14      Leechers : 11

Hash :ECFF146C5190F0A0D7566530D0F9EDA49B9DCF6B
Added :1 Year+ in TV shows
Size :849.85 MB
Stream :Watch Online Full Movie @ Movie4u
Share :









Note :

Please Update (Trackers Info) Before Downloading Torrents to See Updated Seeders And Leechers for Batter Download Speed.

Trackers List

Tracker NameLast CheckStatusSeedersLeechers
udp://9.rarbg.me:2710/announce1 Year+success1411
http://tracker.trackerfix.com/announce1 Year+success1411
udp://9.rarbg.to:2710/announce1 Year+success1411
udp://tracker.trackerfix.com:80/announce1 Year+success1411
http://bigfoot1942.sektori.org:6969/announce1 Year+success00
udp://p4p.arenabg.com:13371 Year+success00
udp://tracker.opentrackr.org:1337/announce1 Year+success03
udp://torrent.gresille.org:80/announce1 Year+success00
udp://glotorrents.pw:6969/announce1 Year+success04
udp://tracker.coppersurfer.tk:801 Year+success00
udp://tracker.coppersurfer.tk:6969/announce1 Year+success00
http://tracker.tfile.me/announce1 Year+success00
udp://tracker.leechers-paradise.org:6969/announce1 Year+success00
udp://tracker.openbittorrent.com:80/announce1 Year+success01
udp://open.demonii.com:1337/announce1 Year+success00




Torrent File Content (3 files)


The.League.S07E10.The.Block.1080p.WEB-DL.DD5.1.H264-NTb[rarbg]
     RARBG.com.txt -
34 bytes

     The.League.S07E10.The.Block.1080p.WEB-DL.DD5.1.H.264-NTb.mkv -
849.8 MB

     The.League.S07E10.The.Block.1080p.WEB-DL.DD5.1.H.264-NTb.srt -
45.01 KB



Description



 							
http://rarbg.to
The.League.S07E10.The.Block.1080p.WEB-DL.DD5.1.H264-NTb[rartv]

image
Screens :

image
Mediainfo :

Video
ID : 1
Format : AVC
Format/Info : Advanced Video Codec
Format profile : [email protected]
Format settings, CABAC : Yes
Format settings, ReFrames : 4 frames
Codec ID : V_MPEG4/ISO/AVC
Duration : 21mn 32s
Bit rate : 5 020 Kbps
Width : 1 920 pixels
Height : 1 080 pixels
Display aspect ratio : 16:9
Frame rate mode : Constant
Frame rate : 23.976 fps
Color space : YUV
Chroma subsampling : 4:2:0
Bit depth : 8 bits
Scan type : Progressive
Bits/(Pixel*Frame) : 0.101
Stream size : 774 MiB (91%)
Language : English
Default : Yes
Forced : No
Color range : Limited
Color primaries : BT.709
Transfer characteristics : BT.709
Matrix coefficients : BT.709

Audio
ID : 2
Format : AC-3
Format/Info : Audio Coding 3
Mode extension : CM (complete main)
Format settings, Endianness : Big
Codec ID : A_AC3
Duration : 21mn 32s
Bit rate mode : Constant
Bit rate : 384 Kbps
Channel(s) : 6 channels
Channel positions : Front: L C R, Side: L R, LFE
Sampling rate : 48.0 KHz
Compression mode : Lossy
Stream size : 59.2 MiB (7%)
Language : English
Default : Yes
Forced : No

Text
ID : 3
Format : UTF-8
Codec ID : S_TEXT/UTF8
Codec ID/Info : UTF-8 Plain Text
Language : English
Default : No
Forced : No


Related torrents

Torrent NameAddedSizeSeedLeechHealth
1 Year+ - in TV shows686.26 MB1413
1 Year+ - in TV shows845.19 MB00
1 Year+ - in TV shows857.07 MB00
1 Year+ - in TV shows828.34 MB00

Note :

Feel free to post any comments about this torrent, including links to Subtitle, samples, screenshots, or any other relevant information. Please Dont Download anything from Comments, And Dont Post Links to Streaming Sites like Fmovies, Xmovies8, 123Movies, GoMovies, CMovieshd, Solarmovie, Watchfree, Putlockers, GoStream, m4ufree etc.

Comments (0 Comments)




Please login or create a FREE account to post comments

Latest Searches

| The Fast and The Furious Tokyo Drift 2006 1080p hindi | bourgeoiseanais | joanna angel sartre | super bad guy | specials s | WINDOWS 98 | airwave i want to believe | bed nicki | nuru july | The Poisoners Handbook |
Sitemap